Vraag & Antwoord

Anders (software)

Hoe maak je een .cue bestand??

4 antwoorden
  • Eigenhandig een .cue bestand maken is mogelijk maar hoe. Ik heb ooit de klok gehoord maar waar hangt die klepel nou??? Het was een kladblok file dat je moet hernoemen naar .cue maar wat zet je er in??? ik erg benieuwd?? :lol:
  • move to anders software. t.
  • Voorbeeld .cue bestand in kladblok: PERFORMER "Pink Floyd" TITLE "Obscured by Clouds" FILE "E:\Muziek\Download\Cue\Pink Floyd - Obscured by Clouds.mp3" MP3 TRACK 01 AUDIO TITLE "Obscured by clouds" PERFORMER "Pink Floyd" INDEX 01 00:00:00 TRACK 02 AUDIO TITLE "When You're In" PERFORMER "Pink Floyd" INDEX 01 03:02:00 TRACK 03 AUDIO TITLE "Burning bridges" PERFORMER "Pink Floyd" INDEX 01 05:30:00 TRACK 04 AUDIO TITLE "The gold it's in the..." PERFORMER "Pink Floyd" INDEX 01 09:00:00 TRACK 05 AUDIO In de 3de regel uiteraard het juiste pad naar het bestand vermelden. De index 01 regels geven de starttijden in minuten:seconden:00
  • Wat handige links: http://www.stefanbion.de/cueltool/index_e.htm http://www.hydrogenaudio.org/index.php?act=ST&f=20&t=4586 http://www.hydrogenaudio.org/index.php?showtopic=17320&

Beantwoord deze vraag

Weet jij het antwoord op deze vraag? Registreer of meld je aan met je account

Dit is een gearchiveerde pagina. Antwoorden is niet meer mogelijk.