Op deze website gebruiken we cookies om content en advertenties te personaliseren, om functies voor social media te bieden en om ons websiteverkeer te analyseren. Ook delen we informatie over uw gebruik van onze site met onze partners voor social media, adverteren en analyse. Deze partners kunnen deze gegevens combineren met andere informatie die u aan ze heeft verstrekt of die ze hebben verzameld op basis van uw gebruik van hun services. Meer informatie.

Akkoord

Vraag & Antwoord

Multimedia, dvd, thuisbioscoop

dts / ac3 audio cd branden

Anoniem
Johnny321
5 antwoorden
  • Onlangs heb ik een dts audio cd gedownload. Nu zijn er twee bestanden overgebleven. 1: bestandstype - wave geluid, 552 mb, bitverwerkingssnelheid 1411 kbps en 2: een CUE-bestand van 832 bytes.

    Nu weet ik niet op welke wijze ik deze bestanden moet branden met Nero 6 (?) zodat ik de audio - per nummer - op mijn standalone dvd-speler kan afspelen.

    Wie kan mij helpen?

    Alvast erg bedankt voor een antwoord of een link naar de uitleg!

    FILE "HARDCANDY.wav"WAVE
    TRACK 01 AUDIO
    INDEX 01 00:00:00
    TRACK 02 AUDIO
    INDEX 00 04:18:61
    INDEX 01 04:20:61
    TRACK 03 AUDIO
    INDEX 00 08:51:25
    INDEX 01 08:53:25
    TRACK 04 AUDIO
    INDEX 00 13:15:51
    INDEX 01 13:17:51
    TRACK 05 AUDIO
    INDEX 00 17:08:61
    INDEX 01 17:10:61
    TRACK 06 AUDIO
    INDEX 00 21:26:35
    INDEX 01 21:28:35
    TRACK 07 AUDIO
    INDEX 00 24:14:58
    INDEX 01 24:16:58
    TRACK 08 AUDIO
    INDEX 00 29:16:06
    INDEX 01 29:18:06
    TRACK 09 AUDIO
    INDEX 00 33:07:55
    INDEX 01 33:09:55
    TRACK 10 AUDIO
    INDEX 00 37:12:43
    INDEX 01 37:14:43
    TRACK 11 AUDIO
    INDEX 00 41:05:67
    INDEX 01 41:07:67
    TRACK 12 AUDIO
    INDEX 00 45:44:26
    INDEX 01 45:46:26
    TRACK 13 AUDIO
    INDEX 00 50:52:26
    INDEX 01 50:54:26
  • Ik denk dat je dat het beste zo kunt doen:
    In Nero naar "recorder", "image branden". Daar open je het CUE-bestand, instellingen controleren en branden maar.

    Of je het dan echter per nummer kunt afspelen betwijfel ik. Dan zou je eerst met een apart programma alle tracks eruit moeten knippen.
  • Allereerst bedankt voor je antwoord!

    Maar helaas krijg ik een foutmelding bij het invoegen van het .cue-bestand: 'an error occurred while loading the cue-sheet file (..) Line 1.

    Nu heb ik nog een mogelijkheid: 7 verschillende .wave tracks, per stuk ongeveer 45 mb en ook bitverwerkingssnelheid 1411 kbps. Er zit geen .cue bestand bij.

    Wanneer ik deze probeer af te spelen op de pc krijg ik ruis (=logisch), maar nu ook weer de vraag: hoe brand ik dit, zodat het op mijn dvd speler (met dts) af te spelen is?
  • ik gebruik Surcode Pro om de wav bestanden om te zetten naar dts wavs
    daarna branden met bv nero

    http://www.cascademedia.net/cgi-bin/cmedia/MINSPLII1.html
  • [quote:17c2bedd19]Maar helaas krijg ik een foutmelding bij het invoegen van het .cue-bestand: 'an error occurred while loading the cue-sheet file (..) Line 1. [/quote:17c2bedd19]Open het bestand in Notepad en plak de tekst in je post. Waarschijnlijk dat het pad gewoon niet klopt.

Beantwoord deze vraag

Dit is een gearchiveerde pagina. Antwoorden is niet meer mogelijk.