Vraag & Antwoord

Programmeren

.cue bestand beter leren begrijpen.

1 antwoord
  • Hallo. Ik heb de afgelopen maanden veel aangekloot met Cubase en Ableton Live, daaruit is een setje van 31 minuten techno/psycho trance uit gekomen. Nu wil ik dat voor mijzelf, maar ook als demo, op een cdtje branden. Ik wil er een .cue bestand aan vastmaken, zodat je tussen de nummers kunt schakelen. Ik heb een .cue bestand van internet gehaald, maar zie iets erin staan wat ik niet snap. Namelijk 'index 00' en 'index 01' die op verschillende tijden ingesteld staan. Wie 0 wie kan mij vertellen wat daar het nut van is ? Hieronder de code van het van internet gehaalde .cue bestand: [code:1:2dce2d38b6] PERFORMER "VA" TITLE "Ultimate Hitz" REM Generated by CD-Tag 2.27 - http://www.cdtag.com FILE "01-va-ultimate_hitz.mp3" MP3 TRACK 01 AUDIO TITLE "Take Over Control (Feat. Eva Simons)" PERFORMER "Afrojack" FLAGS DCP INDEX 01 00:00:00 TRACK 02 AUDIO TITLE "C'mon (Original Mix)" PERFORMER "Tiësto Vs. Diplo" FLAGS DCP INDEX 01 04:25:66 TRACK 03 AUDIO TITLE "Hey Hey" PERFORMER "Dennis Ferrer" FLAGS DCP INDEX 00 08:36:47 INDEX 01 08:40:49 TRACK 04 AUDIO TITLE "DJ Got Us Fallin' In Love (Feat. Pitbull) (Jump Smokers Club Mix)" PERFORMER "Usher" FLAGS DCP INDEX 00 12:26:14 INDEX 01 12:29:38 TRACK 05 AUDIO TITLE "Barbra Streisand (Original Mix)" PERFORMER "Duck Sauce" FLAGS DCP INDEX 01 17:10:70 TRACK 06 AUDIO TITLE "One Life Stand (Feat. Craig Smart) (Extended Mix)" PERFORMER "Longo & Wainwright" FLAGS DCP INDEX 00 19:45:59 INDEX 01 20:03:70 TRACK 07 AUDIO TITLE "Pop Champagne (Reggae Mix)" PERFORMER "Ron Browz" FLAGS DCP INDEX 01 22:54:45 TRACK 08 AUDIO TITLE "Clarks (Feat. Popcaan and Gaza Slim)" PERFORMER "Vybz Kartel" FLAGS DCP INDEX 01 24:25:43 TRACK 09 AUDIO TITLE "Venga (Club Mix)" PERFORMER "Picco" FLAGS DCP INDEX 01 26:12:36 TRACK 10 AUDIO TITLE "Alors on Danse (Extended Mix)" PERFORMER "Stromae" FLAGS DCP INDEX 01 29:42:58 TRACK 11 AUDIO TITLE "Teenage Dream (Vandalism Le Pop Mix)" PERFORMER "Katy Perry" FLAGS DCP INDEX 00 31:49:29 INDEX 01 31:49:32 TRACK 12 AUDIO TITLE "T-Shirt Time" PERFORMER "E-Team" FLAGS DCP INDEX 01 35:49:28 TRACK 13 AUDIO TITLE "Gettin' Over You (Feat. Fergie and LMFAO)" PERFORMER "David Guetta" FLAGS DCP INDEX 01 38:43:45 TRACK 14 AUDIO TITLE "Daybreak Delay" PERFORMER "Baskerville" FLAGS DCP INDEX 01 42:34:60 TRACK 15 AUDIO TITLE "Sofi Needs A Ladder (Feat. Sofi)" PERFORMER "deadmau5" FLAGS DCP INDEX 01 45:58:33 [/code:1:2dce2d38b6] ------------------------------------ Disclaimer: Dit .cue bestand heb ik ergens gevonden, maar heb het album niet. Ik koop mijn muziek !! ------------------------------------ Alvast hartelijk dank. MvG Jax

Beantwoord deze vraag

Weet jij het antwoord op deze vraag? Registreer of meld je aan met je account

Dit is een gearchiveerde pagina. Antwoorden is niet meer mogelijk.