Op deze website gebruiken we cookies om content en advertenties te personaliseren, om functies voor social media te bieden en om ons websiteverkeer te analyseren. Ook delen we informatie over uw gebruik van onze site met onze partners voor social media, adverteren en analyse. Deze partners kunnen deze gegevens combineren met andere informatie die u aan ze heeft verstrekt of die ze hebben verzameld op basis van uw gebruik van hun services. Meer informatie.

Akkoord

Vraag & Antwoord

OS Windows

Cue bestand maken van mp3-file

Koos
5 antwoorden
  • Hallo,
    Ik heb een grote mp3 file van ongeveer een uur en wil die opsplitten in afzonderlijke mp3s en dan branden naar een cd. Ik heb gehoord dat dat kan door het maken van een cue file en die dan te laden in bijv. CDRWin.
    Maar met welke software kan ik die cue file maken?
    alvast bedankt
    HS
  • Bijv. met CueMaster
  • Ik heb in Cuemaster de Cue file in de database gevonden, maar kan het geheel niet naar cd branden met Nero/Cdrwin/Fireburner. Het klopt toch dat je de cue file moet laden en dat dan de mp3 file in delen op cd wordt gebrand? Is er nog andere software?
    tnx
  • Zelf maken in Notepad

    Voorbeeld:
    PERFORMER "Pink Floyd"
    TITLE "Obscured by Clouds"
    FILE "E:\Muziek\Download\Cue\Pink Floyd - Obscured by Clouds.mp3" MP3
    TRACK 01 AUDIO
    TITLE "Obscured by clouds"
    PERFORMER "Pink Floyd"
    INDEX 01 00:00:00
    TRACK 02 AUDIO
    TITLE "When You're In"
    PERFORMER "Pink Floyd"
    INDEX 01 03:02:00
    TRACK 03 AUDIO
    TITLE "Burning bridges"
    PERFORMER "Pink Floyd"
    INDEX 01 05:30:00
    TRACK 04 AUDIO etc. etc.

    Zorg dat de verwijzing naar het bestand goed is (regel 3)
    Sla het op als .cue (in de verkenner .TXT veranderen in .CUE)

    Ga in Nero naar: File / Burn Image, en open het cue file
  • Dank je. Maar als ik nu de cue file als image laad in Nero en hij wil gaan branden, krijg ik de foutmelding dat hij niet kan schrijven in TAO mode. Wat houdt dit in???

Beantwoord deze vraag

Dit is een gearchiveerde pagina. Antwoorden is niet meer mogelijk.